  0
SECTION
  2
HEADER
  9
$LIMMIN
 10
0.000000
 20
0.000000
  9
$LIMMAX
 10
9.810000
 20
13.821489
  9
$EXTMIN
 10
0.000000
 20
0.000000
  9
$EXTMAX
 10
9.810000
 20
13.821489
  9
$ANGBASE
 50
0.000000
  9
$ANGDIR
 70
0
  9
$INSUNITS
 70
5
  9
$DIMALT
 70
5
  9
$DIMLUNIT
 70
2
  9
$DIMASZ
 40
3.000000
  9
$DIMTXT
 40
5.000000
  9
$DIMRND
 40
0.010000
  9
$DIMEXE
 40
2.000000
  9
$DIMEXO
 40
2.000000
  9
$DIMAUNIT
 70
0
  9
$DIMADEC
 70
2
  9
$GRIDUNIT
 10
0.001000
 20
0.001000
  9
$PLIMMIN
 10
0.000000
 20
0.000000
  9
$PLIMMAX
 10
27.940000
 20
21.590000
  9
$PSVPSCALE
 40
1.000000
  0
ENDSEC
  0
SECTION
  2
TABLES
  0
TABLE
  2
LTYPE
 70
     1
  0
LTYPE
  2
CONTINUOUS
 70
    64
  3
Ausgez
 72
    65
 73
  0
 40
0.000000
  0
ENDTAB
  0
TABLE
  2
LAYER
 70
     1
  0
LAYER
  2
default
 70
    64
 62
0
  6
CONTINUOUS
  0
ENDTAB
  0
ENDSEC
  0
SECTION
  2
BLOCKS
  0
ENDSEC
  0
SECTION
  2
ENTITIES
  0
LINE
  8
default
  6
CONTINUOUS
 10
1.000000
 20
1.000000
 11
4.500000
 21
1.000000
 39
2
 62
0
  0
LINE
  8
default
  6
CONTINUOUS
 10
4.500000
 20
1.000000
 11
4.500000
 21
6.100000
 39
2
 62
0
  0
LINE
  8
default
  6
CONTINUOUS
 10
4.500000
 20
6.100000
 11
1.000000
 21
6.100000
 39
2
 62
0
  0
LINE
  8
default
  6
CONTINUOUS
 10
1.000000
 20
6.100000
 11
1.000000
 21
1.000000
 39
2
 62
0
  0
LINE
  8
default
  6
CONTINUOUS
 10
1.026899
 20
1.224379
 11
4.502556
 21
1.224379
 39
2
 62
0
  0
LINE
  8
default
  6
CONTINUOUS
 10
6.000000
 20
1.000000
 11
6.200000
 21
1.000000
 39
2
 62
0
  0
LINE
  8
default
  6
CONTINUOUS
 10
6.200000
 20
1.000000
 11
6.200000
 21
6.100000
 39
2
 62
0
  0
LINE
  8
default
  6
CONTINUOUS
 10
6.200000
 20
6.100000
 11
6.000000
 21
6.100000
 39
2
 62
0
  0
LINE
  8
default
  6
CONTINUOUS
 10
6.000000
 20
6.100000
 11
6.000000
 21
1.000000
 39
2
 62
0
  0
LINE
  8
default
  6
CONTINUOUS
 10
6.000000
 20
1.000000
 11
9.810000
 21
1.000000
 39
2
 62
0
  0
LINE
  8
default
  6
CONTINUOUS
 10
9.810000
 20
1.000000
 11
9.810000
 21
1.200000
 39
2
 62
0
  0
LINE
  8
default
  6
CONTINUOUS
 10
9.810000
 20
1.200000
 11
6.000000
 21
1.200000
 39
2
 62
0
  0
LINE
  8
default
  6
CONTINUOUS
 10
6.000000
 20
1.200000
 11
6.000000
 21
1.000000
 39
2
 62
0
  0
LINE
  8
default
  6
DASH
 10
8.810000
 20
1.200000
 11
8.810000
 21
1.000000
 39
2
 62
0
  0
CIRCLE
  8
default
  6
CONTINUOUS
 10
2.750000
 20
2.900000
 40
0.500000
 39
2
 62
0
  0
DIMENSION
  8
default
  6
CONTINUOUS
  1
1.75cm;;
 10
1.022806
 20
4.227596
 13
1.022806
 23
2.932042
 14
2.761575
 24
2.897949
 50
0.000000
 70
0
 39
2
 62
0
  0
DIMENSION
  8
default
  6
CONTINUOUS
  1
2.0cm;;
 10
5.523150
 20
2.897949
 13
2.795668
 23
2.897949
 14
2.761575
 24
0.988712
 50
90.000000
 70
0
 39
2
 62
0
  0
LINE
  8
default
  6
CONTINUOUS
 10
4.470580
 20
10.998627
 11
0.970580
 21
10.998627
 39
2
 62
0
  0
LINE
  8
default
  6
CONTINUOUS
 10
0.970580
 20
10.798627
 11
4.470580
 21
10.798627
 39
2
 62
0
  0
LINE
  8
default
  6
CONTINUOUS
 10
2.470580
 20
8.998627
 11
2.470580
 21
7.188627
 39
2
 62
0
  0
LINE
  8
default
  6
CONTINUOUS
 10
2.970580
 20
7.188627
 11
2.970580
 21
8.998627
 39
2
 62
0
  0
LINE
  8
default
  6
CONTINUOUS
 10
2.470580
 20
7.188627
 11
2.970580
 21
7.188627
 39
2
 62
0
  0
LINE
  8
default
  6
CONTINUOUS
 10
2.470580
 20
7.188627
 11
2.970580
 21
7.188627
 39
2
 62
0
  0
LINE
  8
default
  6
CONTINUOUS
 10
4.470580
 20
8.983368
 11
4.470580
 21
10.998627
 39
2
 62
0
  0
LINE
  8
default
  6
CONTINUOUS
 10
0.970580
 20
10.998627
 11
0.970580
 21
8.983368
 39
2
 62
0
  0
LINE
  8
default
  6
CONTINUOUS
 10
4.498506
 20
8.998627
 11
2.970580
 21
8.998627
 39
2
 62
0
  0
LINE
  8
default
  6
CONTINUOUS
 10
2.470580
 20
8.998627
 11
0.963690
 21
8.998627
 39
2
 62
0
  0
DIMENSION
  8
default
  6
CONTINUOUS
  1
;;
 10
6.041760
 20
10.998627
 13
0.970580
 23
10.998627
 14
0.970580
 24
8.998627
 50
90.000000
 70
0
 39
2
 62
0
  0
DIMENSION
  8
default
  6
CONTINUOUS
  1
;;
 10
4.470580
 20
11.491760
 13
4.470580
 23
8.998627
 14
2.970580
 24
6.548627
 50
0.000000
 70
0
 39
2
 62
0
  0
DIMENSION
  8
default
  6
CONTINUOUS
  1
;;
 10
2.470580
 20
11.491760
 13
2.470580
 23
7.198627
 14
0.970580
 24
6.548627
 50
0.000000
 70
0
 39
2
 62
0
  0
DIMENSION
  8
default
  6
CONTINUOUS
  1
;;
 10
2.970580
 20
8.041760
 13
2.970580
 23
8.948627
 14
2.470580
 24
8.948627
 50
0.000000
 70
0
 39
2
 62
0
  0
TEXT
  8
default
  6
CONTINUOUS
 10
2.129768
 20
13.321489
 40
0.500000
 50
0.000000
 72
0
  7
Normal#0.050000#0.300000
  1
top view
 39
2
 62
0
  0
TEXT
  8
default
  6
CONTINUOUS
 10
2.129768
 20
5.345300
 40
0.500000
 50
0.000000
 72
0
  7
Normal#0.050000#0.300000
  1
front
 39
2
 62
0
  0
TEXT
  8
default
  6
CONTINUOUS
 10
7.850909
 20
3.132012
 40
0.500000
 50
0.000000
 72
0
  7
Normal#0.050000#0.300000
  1
side
 39
2
 62
0
  0
ENDSEC
  0
EOF
