  0
SECTION
  2
HEADER
  9
$LIMMIN
 10
0.000000
 20
0.000000
  9
$LIMMAX
 10
117.574140
 20
100.421727
  9
$EXTMIN
 10
0.000000
 20
0.000000
  9
$EXTMAX
 10
117.574140
 20
100.421727
  9
$ANGBASE
 50
0.000000
  9
$ANGDIR
 70
0
  9
$INSUNITS
 70
5
  9
$DIMALT
 70
5
  9
$DIMLUNIT
 70
2
  9
$DIMASZ
 40
3.000000
  9
$DIMTXT
 40
5.000000
  9
$DIMRND
 40
0.010000
  9
$DIMEXE
 40
2.000000
  9
$DIMEXO
 40
2.000000
  9
$DIMAUNIT
 70
0
  9
$DIMADEC
 70
2
  9
$GRIDUNIT
 10
0.001000
 20
0.001000
  9
$PLIMMIN
 10
0.000000
 20
0.000000
  9
$PLIMMAX
 10
27.940000
 20
21.590000
  9
$PSVPSCALE
 40
0.200000
  0
ENDSEC
  0
SECTION
  2
TABLES
  0
TABLE
  2
LTYPE
 70
     1
  0
LTYPE
  2
CONTINUOUS
 70
    64
  3
Ausgez
 72
    65
 73
  0
 40
0.000000
  0
ENDTAB
  0
TABLE
  2
LAYER
 70
     1
  0
LAYER
  2
default
 70
    64
 62
0
  6
CONTINUOUS
  0
ENDTAB
  0
ENDSEC
  0
SECTION
  2
BLOCKS
  0
ENDSEC
  0
SECTION
  2
ENTITIES
  0
LINE
  8
default
  6
CONTINUOUS
 10
10.000000
 20
10.000000
 11
50.000000
 21
10.000000
 39
2
 62
0
  0
LINE
  8
default
  6
CONTINUOUS
 10
50.000000
 20
10.000000
 11
50.000000
 21
50.000000
 39
2
 62
0
  0
LINE
  8
default
  6
CONTINUOUS
 10
50.000000
 20
50.000000
 11
10.000000
 21
50.000000
 39
2
 62
0
  0
LINE
  8
default
  6
CONTINUOUS
 10
10.000000
 20
50.000000
 11
10.000000
 21
10.000000
 39
2
 62
0
  0
LINE
  8
default
  6
CONTINUOUS
 10
10.061186
 20
13.987502
 11
50.060535
 21
13.987502
 39
2
 62
0
  0
LINE
  8
default
  6
CONTINUOUS
 10
50.060535
 20
13.987502
 11
50.060535
 21
9.815791
 39
2
 62
0
  0
LINE
  8
default
  6
CONTINUOUS
 10
50.060535
 20
9.815791
 11
10.061186
 21
9.815791
 39
2
 62
0
  0
LINE
  8
default
  6
CONTINUOUS
 10
10.061186
 20
9.815791
 11
10.061186
 21
13.987502
 39
2
 62
0
  0
LINE
  8
default
  6
CONTINUOUS
 10
10.061186
 20
49.815140
 11
11.778949
 21
49.815140
 39
2
 62
0
  0
LINE
  8
default
  6
CONTINUOUS
 10
11.778949
 20
49.815140
 11
11.778949
 21
9.570396
 39
2
 62
0
  0
LINE
  8
default
  6
CONTINUOUS
 10
11.778949
 20
9.570396
 11
10.061186
 21
9.570396
 39
2
 62
0
  0
LINE
  8
default
  6
CONTINUOUS
 10
10.061186
 20
9.570396
 11
10.061186
 21
49.815140
 39
2
 62
0
  0
LINE
  8
default
  6
CONTINUOUS
 10
10.000000
 20
60.000000
 11
11.900000
 21
60.000000
 39
2
 62
0
  0
LINE
  8
default
  6
CONTINUOUS
 10
11.900000
 20
60.000000
 11
11.900000
 21
61.900000
 39
2
 62
0
  0
LINE
  8
default
  6
CONTINUOUS
 10
11.900000
 20
61.900000
 11
10.000000
 21
61.900000
 39
2
 62
0
  0
LINE
  8
default
  6
CONTINUOUS
 10
10.000000
 20
61.900000
 11
10.000000
 21
60.000000
 39
2
 62
0
  0
LINE
  8
default
  6
CONTINUOUS
 10
10.000000
 20
61.900000
 11
50.000000
 21
61.900000
 39
2
 62
0
  0
LINE
  8
default
  6
CONTINUOUS
 10
50.000000
 20
61.900000
 11
50.000000
 21
63.800000
 39
2
 62
0
  0
LINE
  8
default
  6
CONTINUOUS
 10
50.000000
 20
63.800000
 11
10.000000
 21
63.800000
 39
2
 62
0
  0
LINE
  8
default
  6
CONTINUOUS
 10
10.000000
 20
63.800000
 11
10.000000
 21
61.900000
 39
2
 62
0
  0
LINE
  8
default
  6
CONTINUOUS
 10
10.000000
 20
63.800000
 11
70.000000
 21
63.800000
 39
2
 62
0
  0
LINE
  8
default
  6
CONTINUOUS
 10
70.000000
 20
63.800000
 11
70.000000
 21
67.610000
 39
2
 62
0
  0
LINE
  8
default
  6
CONTINUOUS
 10
70.000000
 20
67.610000
 11
10.000000
 21
67.610000
 39
2
 62
0
  0
LINE
  8
default
  6
CONTINUOUS
 10
10.000000
 20
67.610000
 11
10.000000
 21
63.800000
 39
2
 62
0
  0
TEXT
  8
default
  6
CONTINUOUS
 10
19.140793
 20
97.421727
 40
3.000000
 50
0.000000
 72
0
  7
Normal#0.300000#1.800000
  1
These Measurements Are For My Specific Table and Saw Placement
 39
2
 62
0
  0
DIMENSION
  8
default
  6
CONTINUOUS
  1
1.9cm;;
 10
10.000000
 20
55.000000
 13
10.000000
 23
60.000000
 14
12.000000
 24
60.000000
 50
0.000000
 70
0
 39
2
 62
0
  0
LINE
  8
default
  6
CONTINUOUS
 10
10.644058
 20
9.461385
 11
69.777712
 21
9.461385
 39
2
 62
0
  0
LINE
  8
default
  6
CONTINUOUS
 10
69.777712
 20
9.461385
 11
69.777712
 21
14.586301
 39
2
 62
0
  0
LINE
  8
default
  6
CONTINUOUS
 10
69.777712
 20
14.586301
 11
10.644058
 21
14.586301
 39
2
 62
0
  0
LINE
  8
default
  6
CONTINUOUS
 10
10.644058
 20
14.586301
 11
10.644058
 21
9.461385
 39
2
 62
0
  0
DIMENSION
  8
default
  6
CONTINUOUS
  1
40cm;;
 10
10.249833
 20
30.000000
 13
10.249833
 23
26.413032
 14
50.000000
 24
30.000000
 50
0.000000
 70
0
 39
2
 62
0
  0
DIMENSION
  8
default
  6
CONTINUOUS
  1
;;
 10
85.000000
 20
50.000000
 13
45.000000
 23
50.000000
 14
45.000000
 24
10.000000
 50
90.000000
 70
0
 39
2
 62
0
  0
DIMENSION
  8
default
  6
CONTINUOUS
  1
;;
 10
70.000000
 20
75.000000
 13
70.000000
 23
65.000000
 14
10.000000
 24
65.000000
 70
1
 39
2
 62
0
  0
DIMENSION
  8
default
  6
CONTINUOUS
  1
;;
 10
78.468186
 20
63.798937
 13
67.368728
 23
63.798937
 14
67.368728
 24
67.604747
 50
90.000000
 70
0
 39
2
 62
0
  0
ENDSEC
  0
EOF
